#TITLE:My Spirit Will Go On;
#SUBTITLE:(Guitar Solo);
#ARTIST:Dragonforce;
#TITLETRANSLIT:;
#SUBTITLETRANSLIT:;
#ARTISTTRANSLIT:;
#CREDIT:;
#BANNER:MSWGO-bn.jpg;
#BACKGROUND:MSWGO-bg.jpg;
#LYRICSPATH:;
#CDTITLE:!Torrent.png;
#MUSIC:My Spirit Will Go On (Guitar Solo).mp3;
#OFFSET:-7.160;
#SAMPLESTART:100.000;
#SAMPLELENGTH:12.000;
#SELECTABLE:YES;
#BPMS:0.000=100.000,64.000=170.000,166.667=64.000,168.000=200.001;
#STOPS:;
#BGCHANGES:;
// cache tags:
#FIRSTBEAT:0.000;
#LASTBEAT:458.000;
#SONGFILENAME:Songs/nhac/My Spirit Will Go On (Guitar Solo)/My Spirit Will Go On (Guitar Solo).sm;
#HASMUSIC:1;
#HASBANNER:1;
#MUSICLENGTH:171.059;
// end cache tags

//---------------dance-single - HEAVY----------------
#NOTES:
     dance-single:
     HEAVY:
     Hard:
     12:
     1.000,1.000,1.000,1.000,1.000,1358.000,240.000,221.000,0.000,6.000:
1100
0010
0001
1100
0010
0001
1100
0010
0101
0010
1000
0101
0010
1000
0101
1000
,
0110
0001
1000
0110
0001
1000
0110
0001
1010
0100
0010
1001
0100
0010
0101
0010
,
1100
0010
0001
1100
0010
0001
1100
0010
0101
0010
1000
0101
0010
1000
0101
1000
,
0110
0001
1000
0110
0001
1000
0110
0001
1010
0100
0010
1001
0100
0010
0101
1000
,
0011
0100
1000
0011
0100
1000
0011
0100
1010
0100
0001
1010
0100
0001
1010
0001
,
0110
1000
0001
0110
1000
0001
0110
1000
0101
0010
1000
0110
0001
0010
1100
0010
,
1100
0010
0001
1100
0010
0001
1100
0010
0101
0010
1000
0101
0010
1000
0101
1000
,
0110
0001
1000
0110
0001
1000
0110
0001
1010
0100
0001
0110
1000
0100
0011
0100
,
1010
0000
1000
0000
1000
0000
1000
0000
1000
0100
0010
0000
0110
0000
0010
0000
0101
0000
0001
0000
0001
0000
0001
0000
0001
0010
0100
0000
0110
0000
0100
0000
,
1010
0000
1000
0000
1000
0000
1000
0000
1000
0100
0010
0000
0110
0000
0010
0000
0101
0000
0001
0000
0001
0000
0001
0000
0001
0010
0100
0000
0110
0000
0100
0000
,
0011
0000
0010
0000
0010
0000
0010
0000
0010
1000
0001
0000
1001
0000
0001
0000
1100
0000
0100
0000
0100
0000
0100
0000
0100
0001
1000
0000
1001
0000
1000
0000
,
0011
0000
0010
0000
0010
0000
0010
0000
0010
1000
0001
0000
1001
0000
0001
0000
1100
0000
0100
0000
0100
0000
0100
0000
0100
0001
1000
0000
1001
0000
1000
0000
,
0011
0000
0000
0010
0000
0000
0010
0000
0000
0011
0000
0000
0010
0000
0000
0010
0000
0000
0011
0000
0000
0010
0000
0000
1100
0000
0000
0100
0000
0000
0100
0000
0000
1100
0000
0000
0100
0000
0000
0100
0000
0000
1100
0000
0000
0100
1000
0100
,
0011
0000
0000
0010
0000
0000
0010
0000
0000
0011
0000
0000
0010
0000
0000
0010
0000
0000
0011
0000
0000
0010
0000
0000
1100
0000
0000
0100
0000
0000
0100
0000
0000
1100
0000
0000
0100
0000
0000
0100
0000
0000
1100
0000
0000
0100
1000
0100
,
0011
0100
0010
1001
0010
0100
1010
0001
1100
0010
0100
1010
0001
1000
0110
1000
,
0101
1000
0001
0110
0001
1000
0011
0100
1010
0001
1000
0011
0100
0010
1001
0010
,
1100
0000
0000
0000
0110
0000
0000
0000
0000
0011
0000
0000
0110
0000
0000
1100
0000
0000
1010
0000
0000
0000
0000
0000
,
0110
0000
0000
1001
0000
0000
0110
0000
0021
0230
2300
3200
0302
0003
0000
0000
,
1001
0000
0000
1001
0000
0000
1001
0000
1001
0000
0100
0000
1010
0000
0001
0000
,
1100
0010
1001
0100
0011
0000
0110
0000
,
1100
0010
1000
0010
0100
0010
0001
0100
0010
0001
0010
0001
0100
1000
0010
0100
,
0001
0000
0000
1000
0000
0000
0001
0000
0000
1000
0000
0000
0010
0000
0000
0100
0000
0000
1000
0000
0000
0010
0000
0000
0100
0000
0000
0010
0000
0000
0100
0000
0000
0010
0000
0000
1000
0000
0100
0000
0010
0000
0001
0000
1000
0000
0100
0000
,
0010
0110
0000
0101
0011
0110
1100
1010
,
0101
0000
1010
0000
0000
0000
1100
0000
0001
0010
0100
1000
0100
0000
0000
0000
,
1000
0100
0010
0001
0100
0010
1000
0001
0200
0000
0320
0000
0130
0001
0010
0001
,
2000
3200
0300
0000
0000
0000
0100
0010
1000
0010
0100
0010
0001
0000
0000
0000
,
1001
0000
1000
0100
0010
0001
0010
0100
0001
1000
0010
0100
0001
1000
0100
0010
,
0001
0000
0000
0010
0100
0001
1000
0010
0100
0001
0010
0001
0100
1000
0010
0100
,
0002
0023
0230
2300
3002
0023
0230
2300
3002
0023
0230
2300
3002
0023
0230
2300
,
3020
0230
0302
2003
3020
0230
0302
2003
3020
0230
0302
2003
3020
0230
0302
2003
,
3200
0320
2030
3002
0203
0320
2030
3002
0203
0320
2030
3002
0203
0320
2030
3002
,
2003
3200
0320
0032
2003
3200
0320
0032
2003
3200
0320
0032
2003
3200
0320
0032
,
2003
0000
3100
0010
0001
1000
0010
0100
0001
0100
1000
0010
0100
0001
0100
0010
,
1000
0100
0010
0001
0100
0010
1000
0010
0200
0000
0000
0000
0310
0001
0010
0001
,
1000
0100
1000
0100
1000
0100
1000
0000
0100
0010
0100
0010
0100
0010
0100
0000
,
0010
0001
0010
0001
0010
0001
0010
0000
0001
1000
0001
1000
0001
1000
0001
0000
,
1000
0100
0010
0001
0100
0010
0001
0010
0001
1000
0010
0100
0001
1000
0100
0010
,
0001
0100
0010
1000
0001
0100
1000
0010
0200
0000
0000
0000
0000
0000
0000
0000
,
1300
0010
0001
0100
0010
0001
0100
0010
0100
1000
0010
0001
0100
0010
0001
0100
,
2000
3200
0320
0032
2003
3200
0320
0032
2003
3200
0320
0032
2003
3200
0320
0032
,
1023
0000
0000
0000
0000
2130
0000
0000
0000
0000
3210
0000
,
0000
0000
0000
0000
0000
0000
0321
0000
0000
0000
0000
0000
0000
0000
0000
0000
2032
0000
0000
0000
0000
3003
0000
0000
,
2001
3200
0320
0032
2003
3200
0320
0032
0203
0320
2030
3002
0203
0320
2030
3002
,
0203
2300
3200
0320
0032
0203
0302
0023
0230
2300
3200
0320
0032
0023
0230
2300
,
3001
0100
0001
0100
0010
1000
0010
1000
0100
0010
0100
0010
1000
0100
1000
0100
,
0001
0010
0100
1000
0200
0000
0000
0000
0301
0010
0100
1000
0200
0000
0000
0000
,
1300
0010
0100
1000
0010
0100
0001
0010
0100
0001
1000
0100
0010
1000
0001
0100
,
0010
0001
0100
0010
0001
0100
1000
0010
0001
0100
0010
0001
0100
0010
1000
0001
,
0110
0011
0101
2020
3030
0101
0110
2200
,
3300
0101
0110
1010
1001
0000
0000
0000
,
0220
0330
0220
0330
0220
0330
1100
0110
,
0011
0101
1001
1100
0000
0101
0000
0000
,
1000
0100
0010
0001
0010
0100
0001
1000
0010
0100
1000
0010
0001
0100
0010
0001
,
1000
0010
1000
0010
0100
0000
0100
0000
0010
0100
0010
0100
0001
0000
0001
0000
,
2000
3200
0320
0032
2003
3200
0320
0032
0203
0320
2030
3002
0203
0320
2030
3002
,
0023
0230
0302
2003
3020
0230
0302
2003
3200
0320
0032
0023
0230
2300
3200
0320
,
0032
0000
0000
0000
0013
0100
0010
1000
0010
0001
0100
0010
1000
0010
0001
0000
,
0110
1100
0101
0011
1001
0000
0000
0000
,
1100
0000
1100
1100
0000
1100
1100
0110
,
0011
0000
0000
0000
0101
0000
0000
0000
0000
1001
0000
0000
0000
0000
0000
0000
0000
0000
1001
0000
0000
1001
0000
0000
,
0100
0001
0010
1000
0100
0000
0001
0000
0010
0100
0001
1000
0010
0000
0100
0000
,
1100
0110
0011
0101
1001
0000
0000
0000
,
0002
0023
0032
2003
3200
0320
0230
0302
2003
3020
0230
0302
0023
0230
2300
3200
,
0320
0032
0203
0320
2030
3002
0203
0320
2030
3002
0203
0320
0032
0203
2300
3020
,
0230
0000
0000
0000
0000
0000
0000
0000
1300
0001
0000
0000
1000
0001
0000
0000
1000
0001
0000
0000
0100
0000
1000
0000
0100
0000
0010
0000
0001
0000
0100
0000
,
0001
0010
0100
1000
0001
0010
0200
0000
0000
0000
0000
0000
0000
0000
0000
0000
,
1300
0100
0010
0001
0010
0100
1000
0100
0010
0001
1000
0100
0010
0001
1000
0100
,
0010
0001
0010
0100
1000
0100
0010
0001
0010
0100
1000
0100
0010
0000
0000
0000
,
0100
0001
1000
0010
1000
0001
0100
0001
1000
0010
0100
0001
1000
0010
0100
0001
,
1000
0010
1000
0001
0100
0001
1000
0010
1000
0001
0100
0001
1000
0000
0000
0000
,
0010
1000
0001
0100
0001
1000
0010
1000
0001
0100
0010
1000
0001
0100
0010
1000
,
0001
0100
0001
1000
0010
1000
0001
0100
0001
1000
0010
1000
0001
0000
0000
0000
,
0001
0010
0100
1000
0100
0010
0001
0010
0100
1000
0001
0010
0100
1000
0001
0010
,
0100
1000
0100
0010
0001
0010
0100
1000
0100
0010
0001
0010
0100
0000
0000
0000
,
1100
0110
0000
0101
0000
1001
0110
0101
,
1000
0001
0000
0000
0000
0000
0110
0000
0000
0000
0000
0000
1001
0000
0000
0000
0000
0000
0000
0000
1100
0000
0000
0000
0110
0000
0000
0000
0101
0000
0000
0000
,
0011
0000
0000
0110
0000
0000
1100
0000
0000
0000
1100
0000
0011
0000
1100
0000
,
0110
0000
1001
0000
0000
0000
1001
0000
0100
0010
1000
0001
0100
0010
1000
0001
,
0110
0000
0000
1001
0000
0000
0110
0000
0000
0000
0110
0000
0011
0000
0101
0000
,
1001
0000
0000
1001
0000
0000
1001
0000
0000
0000
0110
0000
1100
0000
1010
0000
,
1001
1001
0110
1001
0000
1100
0110
0011
,
1001
0000
0000
0110
0000
0000
1001
0000
0010
1000
0001
0100
0010
1000
0001
0100
,
0010
1000
0001
0100
0001
1000
0010
1000
0001
0100
0010
1000
0001
0100
0010
1000
,
0001
0100
0001
1000
0010
1000
0001
0100
0001
1000
0010
1000
0001
0000
0000
0000
,
1000
0100
0010
0001
0010
0100
1000
0100
0010
0001
1000
0100
0010
0001
1000
0100
,
0010
0001
0010
0100
1000
0100
0010
0001
0010
0100
1000
0100
0010
0000
0000
0000
,
0100
0001
1000
0010
1000
0001
0100
0001
1000
0010
0100
0001
1000
0010
0100
0001
,
1000
0010
1000
0001
0100
0001
1000
0010
1000
0001
0100
0001
1000
0000
0000
0000
,
1000
0010
0001
0100
0001
0010
1000
0010
0001
0100
1000
0010
0001
0100
1000
0010
,
0001
0100
0001
0010
1000
0010
0001
0100
0001
0010
1000
0010
0001
0000
0000
0000
,
0000
0110
0101
0011
,
1001
0000
0000
0110
0000
0000
1001
0000
,
1000
0100
0010
0001
0100
0000
1000
0000
0010
0100
1000
0001
0010
0000
0100
0000
,
0001
0010
0100
1000
0001
0000
0010
0000
0100
0010
0001
1000
0100
0000
0001
0000
,
0110
0110
0110
1001
1001
1001
0011
1100
,
0101
0101
0101
1010
1010
1010
1100
0011
,
0100
0010
1000
0001
0010
0001
0100
0010
1000
0010
0100
1000
0010
0001
0100
0010
,
0001
0010
0100
0001
0010
1000
0010
0100
0010
0001
0100
1000
0010
0100
0001
0010
,
0100
0001
0100
0001
1000
0001
1000
0001
0010
1000
0010
1000
0100
0010
0100
0010
,
1000
0001
1000
0001
0100
1000
0100
1000
0001
0010
0001
0010
0100
0001
0100
0001
,
1100
1100
0011
0000
0110
0110
1001
0000
,
1000
0001
0100
0010
0001
0100
0010
1000
0010
0100
0001
1000
0010
0100
0001
0010
,
0001
0100
1000
0010
0100
1000
0010
0001
0100
0010
0001
1000
0010
0100
0001
1000
,
0020
0230
2300
3020
0032
0203
0320
0032
,
0103
1000
0010
0001
0100
0010
0001
0100
0010
1000
0010
0100
0001
1000
0010
0100
,
0001
1000
0010
0100
0001
0010
0001
0100
1000
0010
0100
0010
1000
0000
0000
0000
,
1001
0100
0010
0001
1000
0100
0010
0001
1000
0100
0010
0001
1000
0100
0010
0001
,
1000
0100
0010
0001
1000
0100
0010
0001
1000
0100
0010
0001
1000
0100
0010
0001
,
2002
0000
0000
0000
,
0000
0000
0000
0000
,
0000
0000
0000
0000
,
0000
0000
0000
0000
,
0000
0000
0000
0000
,
0000
0000
0000
0000
0000
0000
0000
0000
0000
0000
3113
0000
0000
0220
0000
0000
,
0000
0000
0330
0000
;

//---------------dance-single - ONI----------------
#NOTES:
     dance-single:
     ONI:
     Challenge:
     14:
     1.000,1.000,1.000,0.164,1.000,1600.000,243.000,28.000,0.000,6.000:
1100
0100
0100
1100
0100
0100
1100
0100
0101
0001
0001
0101
0001
0001
0101
0100
,
0110
0010
0010
0110
0010
0010
0110
0010
1010
1000
1000
1001
0001
0001
0101
0100
,
1100
1000
1000
1100
1000
1000
1100
0100
0101
0001
0001
0101
0001
0001
0101
0100
,
0110
0010
0010
0110
0010
0010
0110
0010
1010
1000
1000
1001
0001
0001
0101
0001
,
0011
0010
0010
0011
0010
0010
0011
0010
1010
0010
0010
1010
0010
0010
1010
0010
,
0110
0100
0100
0110
0100
0100
0110
0100
0101
0100
0100
0110
0100
0100
1100
1000
,
1100
1000
1000
1100
0100
0100
1100
0100
0101
0001
0001
0101
0100
0100
0101
0100
,
0110
0010
0010
0110
0010
0010
0110
0010
1010
0010
0010
0110
0010
0010
0011
0010
,
1010
0000
1000
0000
1000
0000
1000
0000
1000
0100
0010
0000
0110
0000
0011
0000
0101
0000
0001
0000
0001
0000
0001
0000
0001
0010
0100
0000
0110
0000
1100
0000
,
1010
0000
1000
0000
1000
0000
1000
0000
1000
0100
0010
0000
0110
0000
0011
0000
0101
0000
0001
0000
0001
0000
0001
0000
0001
0010
0100
0000
0110
0000
0101
0000
,
0011
0000
0010
0000
0010
0000
0010
0000
0010
1000
0001
0000
1001
0000
0101
0000
1100
0000
0100
0000
0100
0000
0100
0000
0100
0001
1000
0000
1001
0000
1010
0000
,
0011
0000
0010
0000
0010
0000
0010
0000
0010
1000
0001
0000
1001
0000
0101
0000
1100
0000
0100
0000
0100
0000
0100
0000
0100
0001
1000
0000
1001
0000
1010
0000
,
0011
0010
0010
0011
0010
0010
0011
0010
1100
0100
0100
1100
0100
0100
1100
0110
,
0011
0010
0010
0011
0010
0010
0011
0010
1100
0100
0100
1100
0100
0100
1100
0110
,
0011
0100
0010
1001
0010
0100
1010
0001
1100
0010
0100
1010
0001
1000
0110
1001
,
0101
1000
0001
0110
0001
1000
0011
0100
1010
0001
1000
0011
0100
0010
1001
0110
,
1100
0000
0000
0000
0110
0000
0000
0000
0000
0011
0000
0000
0110
0000
0000
1100
0000
0000
1010
0000
0000
0000
0000
0000
,
0110
0000
0000
0000
0000
0000
0000
0000
0000
1001
0000
0000
0000
0000
0000
0000
0000
0000
0110
0000
0000
0000
0000
0000
0001
0000
0010
0000
0100
0000
1000
0000
0100
0000
0010
0000
0001
0000
0000
0000
0000
0000
0000
0000
0000
0000
0000
0000
,
1001
0000
0000
1001
0000
0000
1001
0000
1001
0000
0100
0000
1010
0000
0001
0000
,
1100
0010
1001
0100
0011
0000
0110
0000
,
1000
1000
1000
1000
0100
0100
0010
0010
0001
0001
0001
0001
1000
1000
0100
0100
,
0010
0000
0000
0010
0000
0000
0010
0000
0000
0010
0000
0000
0100
0000
0000
0100
0000
0000
0001
0000
0000
0001
0000
0000
0100
0000
0000
0100
0000
0000
0100
0000
0000
0100
0000
0000
1000
0000
0100
0000
0010
0000
0001
0000
1000
0000
0100
0000
,
0010
0110
0000
0101
0011
0110
1100
1010
,
0101
0000
1010
0000
0000
0000
1100
0000
0001
0010
0100
1000
0100
0000
0000
0000
,
1000
0000
0000
0100
0000
0000
0010
0000
0000
0001
0000
0000
0100
0000
0000
0010
0000
0000
1000
0000
0000
0001
0000
0000
0100
0000
1000
0000
0100
0000
0010
0000
0001
0000
0010
0000
0100
0000
0000
0001
0000
0000
0010
0000
0000
0001
0000
0000
,
1000
0100
0010
0001
0000
0000
0000
0000
0000
0000
0000
0000
0100
0000
0010
0000
1000
0000
0010
0000
0100
0000
0010
0000
0001
0000
0000
0000
0000
0000
0000
0000
,
1001
0000
1000
0100
0010
0001
0010
0100
0001
1000
0010
0100
0001
1000
0100
0010
,
0001
0000
0000
0010
0100
0001
1000
0010
0100
0001
0010
0001
0100
1000
0010
0100
,
0001
0010
0100
1000
0001
0010
0100
1000
0001
0010
0100
1000
0001
0010
0100
1000
0001
0010
0100
1000
0001
0010
0100
1000
0001
0010
0100
1000
0001
0010
0100
1000
,
0010
0100
0001
1000
0010
0100
0001
1000
0010
0100
0001
1000
0010
0100
0001
1000
0010
0100
0001
1000
0010
0100
0001
1000
0010
0100
0001
1000
0010
0100
0001
1000
,
0100
0010
1000
0001
0100
0010
1000
0001
0100
0010
1000
0001
0100
0010
1000
0001
0100
0010
1000
0001
0100
0010
1000
0001
0100
0010
1000
0001
0100
0010
1000
0001
,
1000
0100
0010
0001
1000
0100
0010
0001
1000
0100
0010
0001
1000
0100
0010
0001
1000
0100
0010
0001
1000
0100
0010
0001
1000
0100
0010
0001
1000
0100
0010
0001
,
1000
0000
0000
0100
0010
1000
0001
0100
0010
0001
0100
0010
1000
0001
0100
0010
0001
0010
0100
1000
0010
0100
0001
0010
,
0100
0000
0001
0000
1000
0000
0010
0000
0000
0001
0000
0000
0100
0000
1000
0000
0100
0000
0010
0000
0001
0000
0010
0000
0200
0000
0000
0000
0000
0000
0000
0000
0000
0000
0000
0000
0310
0000
0001
0000
0010
0000
0001
0000
0010
0000
0001
0000
,
1000
0100
1000
0100
1000
0100
1000
0100
1000
0100
0000
0000
0100
0010
0100
0010
0100
0010
0100
0010
0100
0010
0000
0000
,
0010
0001
0010
0001
0010
0001
0010
0001
0010
0001
0000
0000
0001
1000
0001
1000
0001
1000
0001
1000
0001
1000
0000
0000
,
0001
0000
0000
0000
0000
0000
0010
0000
0000
0000
0000
0000
0100
0000
0000
0000
0000
0000
1000
0000
0000
0000
0000
0000
0010
0000
0000
0000
0000
0000
0000
0000
0001
0000
0000
0000
0000
0000
0000
0000
0100
0000
0000
0000
0000
0000
0000
0000
0010
0000
0000
0000
0000
0000
0000
0000
1000
0000
0000
0000
0000
0000
0000
0000
0100
0000
0000
0000
0000
0000
0000
0000
1000
0000
0000
0000
0000
0000
0000
0000
0010
0000
0000
0000
0000
0000
0000
0000
0100
0000
0000
0000
0000
0000
0000
0000
1000
0000
0000
0000
0000
0000
0000
0000
0001
0000
0000
0000
0000
0000
0000
0000
0010
0000
0000
0000
0000
0000
0000
0000
0001
0000
0000
0000
0000
0000
0000
0000
0100
0000
0000
0000
0000
0000
0000
0000
0010
0000
0000
0000
0000
0000
0000
0000
1000
0000
0000
0000
0000
0000
0000
0000
0001
0000
0000
0000
0000
0000
0000
0000
0100
0000
0000
0000
0000
0000
0000
0000
0010
0000
0000
0000
0000
0000
0000
0000
0001
0000
0000
0000
0000
0000
0000
0000
0010
0000
0000
0000
0000
0000
0000
0000
,
0100
0000
1000
0000
0100
0000
0010
0000
0001
0000
0010
0000
0100
0000
0000
1000
0000
0000
0001
0000
0000
0010
0000
0000
0200
0000
0000
0000
0000
0000
0000
0000
0000
0000
0000
0000
0000
0000
0000
0000
0000
0000
0000
0000
0000
0000
0000
0000
,
1300
0001
0010
1000
0001
0000
0100
0000
0010
0000
0001
0000
1000
0000
0010
0000
0100
0000
0001
0000
0010
0000
0001
0000
0100
0000
0010
0000
0100
0000
0001
0000
,
1000
1000
0100
0100
0010
0010
0001
0001
1000
1000
0100
0100
0010
0010
0001
0001
,
1020
0000
0000
0000
0000
2130
0000
0000
0000
0000
3210
0000
,
0000
0000
0000
0000
0000
0000
0321
0000
0000
0000
0000
0000
0000
0000
0000
0000
2032
0000
0000
0000
0000
3003
0000
0000
,
1000
0100
0010
0001
1000
0100
0010
0001
1000
0100
0010
0001
0100
0010
1000
0001
0100
0010
1000
0001
0100
0010
1000
0001
,
0100
1000
0100
0010
0001
0010
0100
1000
0100
0010
0100
1000
0010
0100
1000
0100
0010
0001
0010
0100
1000
0100
0010
0001
,
1000
1000
1000
1000
0100
0100
0100
0100
0010
0010
0010
0010
0001
0001
0001
0001
,
0100
0010
0100
0010
0200
0000
0000
0000
0301
1000
0001
1000
0002
0000
0000
0000
,
1003
1000
0010
0010
0100
0100
0001
0001
0010
0010
0100
0100
0001
0001
1000
1000
,
0010
0010
0100
0100
0001
0001
0010
0010
0100
0100
1000
1000
0010
0010
0001
0001
,
0110
0011
0101
2020
3030
0101
0110
2200
,
3300
0101
0110
1010
1001
0000
0000
0000
,
0220
0000
0330
0000
0220
0000
0330
0000
0220
0000
0330
0000
0010
0010
0100
0100
,
1000
1000
0100
0100
0010
0010
0001
0000
0000
0000
0101
0000
0000
0000
0000
0000
,
1000
0100
0010
0001
0010
0100
0001
1000
0010
0100
1000
0010
0001
0100
0010
0001
,
0100
0100
0100
0100
0100
0000
0100
0000
0001
0001
0001
0001
0001
0000
0001
0000
,
1000
0100
0010
0001
1000
0100
0010
0001
1000
0100
0010
0001
1000
0100
0010
0001
0100
0010
1000
0001
0100
0010
1000
0001
0100
0010
1000
0001
0100
0010
1000
0001
,
0010
1000
0001
0100
0010
1000
0001
0100
0010
1000
0001
0100
0010
1000
0001
0100
0010
0100
1000
0010
0100
0001
0010
0001
0100
0010
1000
0010
0100
0001
0100
0010
,
0002
0000
0000
0000
0013
0100
0010
1000
0010
0001
0100
0010
1000
0010
0001
0000
,
0110
1100
0101
0011
1001
0000
0000
0000
,
1100
0000
1100
1100
0000
1100
1100
0110
,
0011
0000
0000
0000
0101
0000
0000
0000
0000
1001
0000
0000
0000
0000
0000
0000
0000
0000
1001
0000
0000
1001
0000
0000
,
0100
1000
0010
0001
1000
0010
0100
0000
0000
0001
0000
0000
0010
0100
1000
0001
0100
0010
1000
0000
0000
0100
0000
0000
,
1100
0110
0011
0101
1001
0000
0000
0000
,
1000
0100
0010
0001
1000
0100
0010
0001
1000
0100
0010
0001
1000
0100
0010
0001
1000
0100
0010
0001
1000
0100
0010
0001
,
1000
0001
0100
0010
1000
0001
0100
0010
1000
0001
0100
0010
1000
0001
0100
0010
1000
0001
0100
0010
1000
0001
0100
0010
,
1000
0000
0000
0000
0000
0000
0000
0000
1000
0001
0000
0000
1000
0001
0000
0000
1000
0001
0000
0000
0100
0000
1000
0000
0100
0000
0010
0000
0001
0000
0100
0000
,
0001
0010
0100
1000
0001
0010
0200
0000
0000
0000
0000
0000
0000
0000
0000
0000
,
1300
1000
0100
0100
0010
0010
0001
0001
0100
0100
0010
0010
1000
1000
0001
0001
,
0010
0010
1000
1000
0001
0001
0100
0100
0010
0010
1000
1000
0001
0000
0000
0000
,
0010
0010
0100
0100
1000
1000
0001
0001
0010
0010
0001
0001
0100
0100
0010
0010
,
1000
1000
0100
0100
0010
0010
0001
0001
0100
0100
1000
1000
0100
0000
0000
0000
,
0001
0001
0010
0010
0100
0100
1000
1000
0010
0010
0100
0100
0001
0001
0010
0010
,
0100
0100
1000
1000
0010
0010
0001
0001
0100
0100
0010
0010
2000
0000
3020
0000
,
0130
0100
1000
1000
0001
0001
0100
0100
0010
0010
0001
0001
0010
0010
0100
0100
,
0010
0010
1000
1000
0100
0100
0010
0010
0001
0001
0010
0010
0100
0000
0000
0000
,
1100
0110
0000
0101
0000
1001
0110
0101
,
1000
0001
0000
0000
0000
0000
0110
0000
0000
0000
0000
0000
1001
0000
0000
0000
0000
0000
0000
0000
1100
0000
0000
0000
0110
0000
0000
0000
0101
0000
0000
0000
,
0011
0000
0000
0110
0000
0000
1100
0000
0000
0000
1100
0000
0011
0000
1100
0000
,
0110
0000
1001
0000
0000
0000
1001
0000
0100
0100
0010
0010
1000
1000
0001
0001
,
0110
0000
0000
1001
0000
0000
0110
0000
0000
0000
0110
0000
0011
0000
0101
0000
,
1001
0000
0000
1001
0000
0000
1001
0000
0000
0000
0110
0000
1100
0000
1010
0000
,
1001
1001
0110
1001
0000
1100
0110
0011
,
1001
0000
0000
0000
0000
0000
0000
0000
0000
0110
0000
0000
0000
0000
0000
0000
0000
0000
1001
0000
0000
0000
0000
0000
0100
0000
0010
0000
0001
0000
1000
0000
0100
0000
0010
0000
0001
0000
1000
0000
0100
0000
0010
0000
0001
0000
0100
0000
,
0010
0010
1000
1000
0001
0001
0100
0100
1000
1000
0001
0001
0010
0010
0100
0100
,
0001
0001
0010
0010
0100
0100
1000
1000
0001
0001
0010
0010
0100
0000
0000
0000
,
0001
0001
1000
1000
0010
0010
0100
0100
0001
0001
0100
0100
1000
1000
0001
0001
,
0010
0010
1000
1000
0001
0001
0100
0100
1000
1000
0010
0010
1000
0000
0000
0000
,
0100
0100
0001
0001
1000
1000
0010
0010
0001
0001
1000
1000
0100
0100
0001
0001
,
1000
1000
0010
0010
0001
0001
0100
0100
1000
1000
0001
0001
0010
0000
0000
0000
,
1000
1000
0010
0010
0100
0100
1000
1000
0001
0001
0100
0100
0001
0001
1000
1000
,
0001
0001
0010
0010
1000
1000
0001
0001
0100
0100
0001
0001
1000
0000
0000
0000
,
0000
0110
0101
0011
,
1001
0000
0000
0110
0000
0000
1001
0000
,
1000
0000
0000
0000
0000
0000
0100
0000
0000
0000
0000
0000
0010
0000
0000
0000
0000
0000
0001
0000
0000
0000
0000
0000
1000
0000
0000
0000
0000
0000
0100
0000
0000
0000
0000
0000
0010
0000
0000
0000
0000
0000
0001
0000
0000
0000
0000
0000
1000
0000
0000
0000
0000
0000
0000
0000
0000
0000
0000
0000
0000
0000
0000
0000
0000
0000
0000
0000
0000
0000
0000
0000
1000
0000
0000
0000
0000
0000
0000
0000
0000
0000
0000
0000
0000
0000
0000
0000
0000
0000
0000
0000
0000
0000
0000
0000
0010
0000
0000
0000
0000
0000
0000
0000
0100
0000
0000
0000
0000
0000
0000
0000
1000
0000
0000
0000
0000
0000
0000
0000
0001
0000
0000
0000
0000
0000
0000
0000
0010
0000
0000
0000
0000
0000
0000
0000
0100
0000
0000
0000
0000
0000
0000
0000
1000
0000
0000
0000
0000
0000
0000
0000
0000
0000
0000
0000
0000
0000
0000
0000
0000
0000
0000
0000
0000
0000
0000
0000
0100
0000
0000
0000
0000
0000
0000
0000
0000
0000
0000
0000
0000
0000
0000
0000
0000
0000
0000
0000
0000
0000
0000
0000
,
0001
0000
0000
0000
0000
0000
0000
0000
0010
0000
0000
0000
0000
0000
0000
0000
0100
0000
0000
0000
0000
0000
0000
0000
1000
0000
0000
0000
0000
0000
0000
0000
0001
0000
0000
0000
0000
0000
0000
0000
0010
0000
0000
0000
0000
0000
0000
0000
0100
0000
0000
0000
0000
0000
0000
0000
0000
0000
0000
0000
0000
0000
0000
0000
0000
0000
0000
0000
0000
0000
0000
0000
0010
0000
0000
0000
0000
0000
0000
0000
0000
0000
0000
0000
0000
0000
0000
0000
0000
0000
0000
0000
0000
0000
0000
0000
0100
0000
0000
0000
0000
0000
0010
0000
0000
0000
0000
0000
0001
0000
0000
0000
0000
0000
1000
0000
0000
0000
0000
0000
0100
0000
0000
0000
0000
0000
0000
0000
0010
0000
0000
0000
0000
0000
0000
0000
0001
0000
0000
0000
0000
0000
0000
0000
0100
0000
0000
0000
0000
0000
0000
0000
0000
0000
0000
0000
0000
0000
0000
0000
0000
0000
0000
0000
0000
0000
0000
0000
0001
0000
0000
0000
0000
0000
0000
0000
0000
0000
0000
0000
0000
0000
0000
0000
0000
0000
0000
0000
0000
0000
0000
0000
,
0110
0110
0110
1001
1001
1001
0011
1100
,
0101
0101
0101
1010
1010
1010
1100
0011
,
1000
0100
0010
0001
1000
0100
0010
0001
1000
0100
0010
0001
1000
0100
0010
0001
1000
0100
0010
0001
1000
0100
0010
0001
,
1000
0010
0100
0001
1000
0010
0100
0001
1000
0010
0100
0001
1000
0010
0100
0001
1000
0010
0100
0001
1000
0010
0100
0001
,
1000
1000
1000
1000
0100
0100
0100
0100
0010
0010
0010
0010
0001
0001
0001
0001
,
0100
0100
0100
0100
0010
0010
0010
0010
1000
1000
1000
1000
0001
0001
0001
0001
,
0110
1100
0011
0000
0110
0110
1001
0000
,
1000
0001
0100
0010
0001
0100
0010
1000
0010
0100
0001
1000
0010
0100
0001
0010
,
1000
0100
0010
0001
1000
0100
0010
0001
0100
0010
1000
0100
0010
0001
0100
0010
1000
0100
0010
0001
0100
0010
1000
0100
,
0010
0010
0100
0100
0001
0001
1000
1000
0010
0010
0100
0100
0001
0001
0010
0010
,
1000
0100
0001
0010
0001
0100
0010
1000
0010
0001
0100
0010
0001
1000
0100
0010
0001
1000
0010
0100
0010
1000
0100
0010
,
0001
1000
0100
0010
0001
1000
0100
0010
0001
1000
0100
0010
0001
1000
0100
0010
0001
0000
0010
0000
0100
0000
1000
0000
0001
0000
0000
0000
0000
0000
0000
0000
,
1001
0100
0010
0001
1000
0100
0010
0001
1000
0100
0010
0001
1000
0100
0010
0001
,
1000
0100
0010
0001
1000
0100
0010
0001
1000
0100
0010
0001
1000
0100
0010
0001
,
2002
0000
0000
0000
,
0000
0000
0000
0000
,
0000
0000
0000
0000
,
0000
0000
0000
0000
,
0000
0000
0000
0000
,
0000
0000
0000
0000
0000
0000
0000
0000
0000
0000
0110
0000
0000
3223
0000
0000
,
0000
0000
0330
0000
;
